Autor Tema: ¿Qué estás escuchando?  (Leído 139838 veces)

feraldi

  • Visitante
Re:¿Qué estás escuchando?
« Respuesta #390 en: Junio 21, 2014, 01:45:16 pm »

Que grandes...  ::)

CapitanHarts

  • 1000+
  • *****
  • Mensajes: 3997
  • ...es cosa de hombres.
Re:¿Qué estás escuchando?
« Respuesta #391 en: Junio 21, 2014, 02:08:44 pm »
Me encanta el Led Zeppelin IV.

Saludos.

V/. Christe, Fili Dei vivi, miserére nobis.

feraldi

  • Visitante
Re:¿Qué estás escuchando?
« Respuesta #392 en: Junio 24, 2014, 01:13:20 pm »
Hoy me ha dado por hacer un experimento curioso.. :P y es que cuando el Diablo se aburre, mata moscas con el rabo. De entre la basta colección de discos catalogados en la web dr.loudness-war he decidido escuchar un par de grabaciones, las que tengan el mejor y el peor rango dinámico de cuantas tengan inventariadas.

Los resultados son los siguientes:

Mejor grabación: Salvatore Accardo (violin) & I Musici: Giuseppe Tartini: 3 Violin Concertos (SACD multichannel layer). Con unos impresionantes DRmin=22, DRmax=23 y un promedio de DR=22. Existen otras grabaciones que alcanzan incluso picos de DRmax=27, pero se corresponden con grabaciones de sonidos domésticos o discursos, pero a mi lo que me interesa es escuchar música y ésta era la mejor de las grabaciones que cumple con estos requisitos. El disco:



Lo estoy escuchando con mi modesto equipo de escritorio y aún así lo estoy disfrutando un montón, no solo es una grabación de mucha calidad si no que las piezas musicales son fantásticas, estoy disfrutando mucho de mi nuevo descubrimiento.

Los números:

foobar2000 1.2.9 / Dynamic Range Meter 1.1.1
log date: 2014-03-30 17:32:00

--------------------------------------------------------------------------------
Analyzed: Salvatore Accardo (violin), I Musici / Tartini - 3 Violin Concertos
--------------------------------------------------------------------------------

DR         Peak         RMS     Duration Track
--------------------------------------------------------------------------------
DR22      -6.19 dB   -26.48 dB      5:35 01-Violin Concerto in A, D.96 - 1. Allegro
DR22      -9.16 dB   -29.28 dB      4:58 02-Violin Concerto in A, D.96 - 2. Adagio
DR22      -5.07 dB   -25.68 dB      4:46 03-Violin Concerto in A, D.96 - 3. Presto
DR22     -13.30 dB   -32.40 dB      6:06 04-Violin Concerto in A, D.96 - 4. Largo andante
DR22      -3.81 dB   -23.21 dB      8:44 05-Violin Concerto in B flat, D.117 - 1. Largo - Allegro
DR22     -14.61 dB   -34.28 dB      4:45 06-Violin Concerto in B flat, D.117 - 2. Largo andante
DR22      -4.97 dB   -23.69 dB      6:09 07-Violin Concerto in B flat, D.117 - 3. Allegro
DR22      -5.59 dB   -25.91 dB      6:03 08-Violin Concerto in G, D.78 - 1. Allegro
DR23     -12.17 dB   -34.47 dB      7:44 09-Violin Concerto in G, D.78 - 2. Largo andante
DR23      -6.39 dB   -26.47 dB      6:11 10-Violin Concerto in G, D.78 - 3. Presto
--------------------------------------------------------------------------------

Impresionante.. :o

--- --- ---


Peor grabación: Prurient. And still, wanting. Hace falta tenerlos de hormigón armado para sacar al mercado algo que tenga unos no menos impresionantes DRmin=0 y DRmax=0...OLE TÚ!!. El engendro:



Lo estoy bajando en estos momentos, obviamente no me he preocupado de buscar nada en lossless o una ISO de SACD, si lo más probable es que pase totalmente de él y se vaya derechito a la papelera.

Los números:

foobar2000 1.1.15 / Dynamic Range Meter 1.1.1
log date: 2012-09-20 01:27:20

--------------------------------------------------------------------------------
Analyzed: Prurient / And Still, Wanting
--------------------------------------------------------------------------------

DR         Peak         RMS     Duration Track
--------------------------------------------------------------------------------
DR0        0.00 dB    -0.32 dB      3:01 01-Memory Repeating
DR0        0.00 dB    -0.24 dB      3:40 02-Returning Truth
DR0        0.00 dB    -0.22 dB      3:30 03-Subject
DR0        0.00 dB    -0.04 dB      5:41 04-Lust End
DR0        0.00 dB    -1.37 dB      6:54 05-Total Terrorism
DR0        0.00 dB    -0.26 dB      7:42 06-Strict Ideas
DR0        0.00 dB    -0.05 dB     10:04 07-Incense and Rubber
--------------------------------------------------------------------------------

Más impresionante aún.. :o

Comentario de la persona que ha subido la información a la web, no tiene desperdicio: "This album is pure annihilation on the ears, not for the faint of heart, painfully loud violent harsh noise album. I rechecked this with a lossless version to make sure it wasn't a mistake and it still had 0 dr for every song."

Si alguno de vosotros está interesado en tener mayor información al respecto.. ;D, MP al canto.

Saludos amigos.
« última modificación: Junio 24, 2014, 01:36:35 pm por feraldi »

feraldi

  • Visitante
Re:¿Qué estás escuchando?
« Respuesta #393 en: Junio 24, 2014, 01:19:10 pm »
Al hilo de lo comentado, quizás os interese firmar la siguiente petición:

http://www.change.org/petitions/stop-the-loudness-wars-and-release-high-definition-music-downloads

Saludos.

rveramos

  • 250+
  • ****
  • Mensajes: 459
Re:¿Qué estás escuchando?
« Respuesta #394 en: Junio 27, 2014, 11:27:43 pm »
buenas

ya hace un tiempo que vengo escuchando Ben Howard y su album Every Kindom. Es de hace un par de años pero a principios de 2013 tuvo su momento de gloria. La música es fresca, melodiosa, fácil de escuchar y mucho más de disfrutar. Me encanta la guitarra y la mezcla que consique el compositor y cantante con su voz.



Os lo aconsejo si todavía no habéis topado con él.

Rafael
Sólo sé lo que no sé. Este es mi punto de partida.

alegar

  • 500+
  • *****
  • Mensajes: 725
Re:¿Qué estás escuchando?
« Respuesta #395 en: Junio 29, 2014, 09:23:28 am »
Pink Floyd - The Division Bell (1994/2014 Warner Music, 20th Anniversary, Audiophile 96kHz/24bit) High-Fidelity





http://www.youtube.com/watch?v=P7YMI39sObY&feature=player_embedded#t=28
Varios amplificadores de auriculares y auriculares.
¡Mi verdadera pasión es y será escuchar música!

MegalomaniaC

  • 250+
  • ****
  • Mensajes: 282
    • Estudio Cometa | Desarrollo web y diseño gráfico.
Re:¿Qué estás escuchando?
« Respuesta #396 en: Junio 29, 2014, 08:26:11 pm »
Strangers passing in the street
By chance two separate glances meet
And I am you and what I see is me

CapitanHarts

  • 1000+
  • *****
  • Mensajes: 3997
  • ...es cosa de hombres.
Re:¿Qué estás escuchando?
« Respuesta #397 en: Junio 29, 2014, 09:01:28 pm »
Y sigo vivo...   ;)



V/. Christe, Fili Dei vivi, miserére nobis.

Scarletbegonias

  • Visitante
Re:¿Qué estás escuchando?
« Respuesta #398 en: Junio 29, 2014, 10:11:04 pm »
Ahora mismo, con los RS-1, algo realmente canalla, tres golfos, para ser más correctos una golfa y dos golfos (Mary Huff, Dave Hartmany Rick Miller). Dirt Track Date de Southern Culture on the Skids     






http://www.youtube.com/watch?v=5iy8pf42gC0



Faltan varias canciones (4), menos da una piedra, es lo que hay :  http://grooveshark.com/#!/album/Dirt+Track+Date/297177


Saludos
http://www.youtube.com/watch?v=smplOTMkWPk
« última modificación: Junio 29, 2014, 10:29:33 pm por Scarletbegonias »

nserra

  • 1000+
  • *****
  • Mensajes: 2224
Re:¿Qué estás escuchando?
« Respuesta #399 en: Julio 01, 2014, 12:39:42 am »
Dándole un poco de caña a los HE-500  8).


Scarletbegonias

  • Visitante
Re:¿Qué estás escuchando?
« Respuesta #400 en: Julio 01, 2014, 09:06:53 am »
Gran disco, La Iguana está tremenda, una pena que Bowie jodiera las mezclas.

Saludos,

Ramón

nserra

  • 1000+
  • *****
  • Mensajes: 2224
Re:¿Qué estás escuchando?
« Respuesta #401 en: Julio 01, 2014, 12:13:41 pm »
Tengo el original también, pero normalmente escucho el Mix de Iggy del 97', que se supone que ese suena como el quería  ;D.

T1000

  • Global Moderator
  • 1000+
  • *****
  • Mensajes: 1869
Re:¿Qué estás escuchando?
« Respuesta #402 en: Julio 01, 2014, 08:06:43 pm »
buenas
ya hace un tiempo que vengo escuchando Ben Howard y su album Every Kindom. Es de hace un par de años pero a principios de 2013 tuvo su momento de gloria. La música es fresca, melodiosa, fácil de escuchar y mucho más de disfrutar. Me encanta la guitarra y la mezcla que consique el compositor y cantante con su voz.

Os lo aconsejo si todavía no habéis topado con él.
Rafael

Gracias por el aporte. Buen disco si señor. No lo conocía.

Para mi, esta la mejor canción del disco: https://www.youtube.com/watch?v=aXtLhAotLKo

Saludos.
Tu foro de Audifonos Auriculares Headphones HIFI www.auriculares-hifi.com

rveramos

  • 250+
  • ****
  • Mensajes: 459
Re:¿Qué estás escuchando?
« Respuesta #403 en: Julio 03, 2014, 11:18:41 pm »
buenas
ya hace un tiempo que vengo escuchando Ben Howard y su album Every Kindom. Es de hace un par de años pero a principios de 2013 tuvo su momento de gloria. La música es fresca, melodiosa, fácil de escuchar y mucho más de disfrutar. Me encanta la guitarra y la mezcla que consique el compositor y cantante con su voz.

Os lo aconsejo si todavía no habéis topado con él.
Rafael

Gracias por el aporte. Buen disco si señor. No lo conocía.

Para mi, esta la mejor canción del disco: https://www.youtube.com/watch?v=aXtLhAotLKo

Saludos.

Ciertamente una de las mejorcitas. Menos acústica pero llena de ritmo, más vocal y coral que otras, y eso te da un subidón sí.
Rafa (RVR)
Sólo sé lo que no sé. Este es mi punto de partida.

rveramos

  • 250+
  • ****
  • Mensajes: 459
Re:¿Qué estás escuchando?
« Respuesta #404 en: Julio 03, 2014, 11:31:23 pm »
Advierto este otro se podría parecer un poco al Ben Howard, pero se desmarcan claramente.
El chico se llama José González y es sueco :-). Este album es Veneer. También se compone de guitarra acústica y la voz del cantante compositor creo. Esta lleno de calma. Atención no os dejéis llevar por la tranquilidad que aporta sino hablamos mañana. A buena dosis te puede llevar a un estado particular. Abstenerse en momentos con ganas de caña.

Sólo sé lo que no sé. Este es mi punto de partida.