Autor Tema: ¿Qué estás escuchando?  (Leído 139899 veces)

Scarletbegonias

  • Visitante
Re:¿Qué estás escuchando?
« Respuesta #630 en: Diciembre 02, 2014, 08:47:43 pm »
He pasado al bluegrass, Old & In The Way. Un pirata puro y duro de esos que se venden en Amazon, excelente grabación radiofónica de un concierto del 73'. "Un lujo a su alcance"




Desgraciadamente no puedo linkar ninguna referencia sonora.

CapitanHarts

  • 1000+
  • *****
  • Mensajes: 3997
  • ...es cosa de hombres.
Re:¿Qué estás escuchando?
« Respuesta #631 en: Diciembre 02, 2014, 09:43:15 pm »



En mp3 (192kbps). Es muy importante 3scuchar este disco en mp3 a 192kbps para que tenga el cuerpo, la textura y la carnalidad pr3cisas.   :)

V/. Christe, Fili Dei vivi, miserére nobis.

MATEOBCN

  • 1000+
  • *****
  • Mensajes: 5024
  • WWW.AURICULAR.ORG Reviews de auriculares
    • AURICULAR.ORG Reviews de auriculares sin amarfilar
Re:¿Qué estás escuchando?
« Respuesta #632 en: Diciembre 02, 2014, 10:19:55 pm »



En mp3 (192kbps). Es muy importante 3scuchar este disco en mp3 a 192kbps para que tenga el cuerpo, la textura y la carnalidad pr3cisas.   :)

Uno de mis discos favoritos.
http://auricular.org/ Reviews de auriculares sin amarfilar. Por Mateobcn

Paco BDN

  • 1000+
  • *****
  • Mensajes: 1105
  • Aprendiendo cada día.
Re:¿Qué estás escuchando?
« Respuesta #633 en: Diciembre 02, 2014, 10:45:57 pm »
Perdonar mi ingerencia en este post, pero es que llevo unas noches queriendo comentaros mis "escuchas", y no sé cómo insertar las carátulas.

Os repito mis disculpas, pero si me lo podéis explicar por favor. Lo he buscado por el foro y no he sido capaz de encontrar nada al respecto.

Saludos.
Tu foro de Audifonos Auriculares Headphones HIFI www.auriculares-hifi.com

Paco BDN

  • 1000+
  • *****
  • Mensajes: 1105
  • Aprendiendo cada día.
Re:¿Qué estás escuchando?
« Respuesta #634 en: Diciembre 02, 2014, 11:20:14 pm »
Tu foro de Audifonos Auriculares Headphones HIFI www.auriculares-hifi.com

maty

  • 500+
  • *****
  • Mensajes: 745
    • Nauscopio Scipiorum
Re:¿Qué estás escuchando? - Bruce Springsteen - Greetings From Asbury Park N.J.
« Respuesta #635 en: Diciembre 02, 2014, 11:54:31 pm »
Una pasada la nueva reedición en vinilo del primer trabajo de estudio de Bruce Springsteen con la E-Street Band en 1973.

Suena como un tiro a estas horas.

Bruce Springsteen - Greetings From Asbury Park N.J. (1973, 2014)


Citar
--------------------------------------------------------------------------------
Analyzed: Bruce Springsteen / Greetings From Asbury Park N.J.  [Columbia Records 180g 2014 LP Reissue]
--------------------------------------------------------------------------------

DR         Peak         RMS     Duration Track
--------------------------------------------------------------------------------
DR12      -2.07 dB   -16.32 dB      5:02 01-Blinded By The Light
DR12      -2.43 dB   -16.58 dB      3:05 02-Growin' Up
DR11      -2.51 dB   -18.93 dB      5:19 03-Mary Queen Of Arkansas
DR11      -2.41 dB   -15.33 dB      2:05 04-Does This Bus Stop At 82nd Street?
DR12      -0.45 dB   -16.32 dB      5:13 05-Lost In The Flood
DR13      -3.65 dB   -20.67 dB      3:24 06-The Angel
DR11      -1.16 dB   -14.52 dB      4:39 07-For You
DR11      -0.99 dB   -14.68 dB      4:59 08-Spirit In The Night
DR12      -0.92 dB   -15.69 dB      3:12 09-It's Hard To Be A Saint In The City
--------------------------------------------------------------------------------

Number of tracks:  9
Official DR value: DR12

-> http://dr.loudness-war.info/album/list?artist=Bruce+Springsteen&album=Greetings+From+Asbury+Park

-> http://es.wikipedia.org/wiki/Greetings_from_Asbury_Park,_N.J.

Un IMPRESCINDIBLE en cualquier discoteca que se precie.
« última modificación: Diciembre 03, 2014, 12:00:31 am por maty »
Tu foro de Audifonos Auriculares Headphones HIFI www.auriculares-hifi.com

Paco BDN

  • 1000+
  • *****
  • Mensajes: 1105
  • Aprendiendo cada día.
Re:¿Qué estás escuchando?
« Respuesta #636 en: Diciembre 03, 2014, 12:18:50 am »


FLAC 24Bits 96KHz
Tu foro de Audifonos Auriculares Headphones HIFI www.auriculares-hifi.com

argilag

  • 100+
  • ***
  • Mensajes: 233
Re:¿Qué estás escuchando?
« Respuesta #637 en: Diciembre 03, 2014, 12:39:54 am »



Pink Floid   "Pulse"

En cd

argilag

  • 100+
  • ***
  • Mensajes: 233
Re:¿Qué estás escuchando?
« Respuesta #638 en: Diciembre 03, 2014, 01:09:37 am »

kishorfarm

  • 100+
  • ***
  • Mensajes: 222
  • No hagas hoy lo que puedas dejar para mañana
Re:¿Qué estás escuchando?
« Respuesta #639 en: Diciembre 03, 2014, 11:25:57 am »


Scorpions "Taken By Force" (1977) [Japan release]
CAL! · HD681B · HTX7 · NFB-11 · T520 · W7

argilag

  • 100+
  • ***
  • Mensajes: 233
Re:¿Qué estás escuchando?
« Respuesta #640 en: Diciembre 03, 2014, 04:03:37 pm »



Orbital "In Sides"

argilag

  • 100+
  • ***
  • Mensajes: 233
Re:¿Qué estás escuchando?
« Respuesta #641 en: Diciembre 03, 2014, 05:46:06 pm »




Pink Floid "Animals"

argilag

  • 100+
  • ***
  • Mensajes: 233
Re:¿Qué estás escuchando?
« Respuesta #642 en: Diciembre 03, 2014, 06:41:27 pm »



Cowboy Junkies "200 more miles"

kishorfarm

  • 100+
  • ***
  • Mensajes: 222
  • No hagas hoy lo que puedas dejar para mañana
Re:¿Qué estás escuchando?
« Respuesta #643 en: Diciembre 03, 2014, 06:45:06 pm »
Pink Floid "Animals"

+1 Muy bueno ese
CAL! · HD681B · HTX7 · NFB-11 · T520 · W7

argilag

  • 100+
  • ***
  • Mensajes: 233
Re:¿Qué estás escuchando?
« Respuesta #644 en: Diciembre 03, 2014, 08:03:50 pm »



Hole. "Live Through This"